#TITLE:Venus Carnival;
#SUBTITLE:SDO China;
#ARTIST:O2Music;
#TITLETRANSLIT:;
#SUBTITLETRANSLIT:;
#ARTISTTRANSLIT:;
#CREDIT:;
#BANNER:banner.png;
#BACKGROUND:bg.png;
#LYRICSPATH:;
#CDTITLE:;
#MUSIC:Venus Carnival.mp3;
#OFFSET:0.000;
#SAMPLESTART:99.980;
#SAMPLELENGTH:12.000;
#SELECTABLE:YES;
#BPMS:0.000=80.000,0.500=185.000,340.000=92.500,340.500=200.000,341.500=369.999,349.000=92.500,351.000=185.000,465.500=369.998,467.500=184.999;
#STOPS:;
#BGCHANGES:;
// cache tags:
#FIRSTBEAT:8.000;
#LASTBEAT:468.500;
#SONGFILENAME:Songs/Super Dancer Online/Venus Carnival/Venus Carnival.sm;
#HASMUSIC:1;
#HASBANNER:1;
#MUSICLENGTH:153.312;
// end cache tags

//---------------dance-single - ----------------
#NOTES:
     dance-single:
     :
     Hard:
     53:
     1.000,1.000,1.000,1.000,1.000,1369.000,496.000,750.000,0.000,225.000:

0000
0000
0000
0000
,
0000
0000
0000
0000
,
1111
0000
2002
3003
0100
0110
2002
3003
,
1110
0111
1110
0111
,
1110
0000
2002
3003
0100
0110
2002
3003
,
0111
0000
1110
0000
0111
1110
0111
0000
,
1110
0000
2002
3003
0100
0110
2002
3003
,
0111
1110
0111
1110
,
0111
0000
2002
3003
0100
0110
2002
3003
,
1110
0000
0111
0000
1110
0111
1110
0111
,
1110
0000
0002
0003
2010
0000
0002
3003
1110
0000
0002
0003
2010
0000
0002
3003
,
1110
0000
0002
0003
2010
0000
0002
3003
1110
0000
0002
0003
2010
0000
0001
3000
,
0111
0000
2000
3000
0102
0000
2000
3003
0111
0000
2000
3000
0102
0000
2000
3003
,
0111
0000
2000
3000
0102
0000
2000
3003
0111
0000
2000
3000
0102
0000
2000
3003
,
1110
0000
0002
0003
2010
0000
0002
3003
1110
0000
0002
0003
2010
0000
0002
3003
,
1110
0000
0002
0003
2010
0000
0002
3003
1110
0000
0002
0003
2010
0000
0002
3003
,
0111
0000
1000
0000
0102
0000
1000
0003
0111
0000
2000
3000
0102
0000
2000
3003
,
0112
0000
2000
3000
0010
0000
2000
3000
0100
0000
0010
0010
1100
0000
1100
0000
,
0013
0000
0202
0303
1010
0000
0202
0303
0010
0000
0202
0303
1010
0000
0202
0303
,
0010
0000
0202
0303
1010
0000
0202
0303
0010
0000
0202
0303
1010
0000
0202
0303
,
0100
0000
2020
3030
0101
0000
2020
3030
0100
0000
2020
3030
0101
0000
2020
3030
,
0100
0000
2020
3030
0101
0000
2020
3030
0100
0000
2020
3030
0101
0000
2020
3030
,
0101
0010
1100
0010
0001
0010
0101
1000
0110
0001
1010
0100
1000
0100
0011
0100
,
1010
0001
0110
1000
0100
0010
0101
1000
0110
0001
1010
0100
0011
0100
1010
0001
,
0110
1000
0101
0010
0001
0010
1100
0010
0101
1000
0110
0001
0010
0100
1010
0100
,
0011
0100
1010
0001
0010
0100
1010
0001
0110
1000
0101
0010
1100
0010
0101
1000
,
0101
0010
1100
0010
0001
0010
0101
1000
0110
0001
1010
0100
1000
0100
0011
0100
,
1010
0001
0110
1000
0100
0010
0101
1000
0110
0001
1010
0100
0011
0100
1010
0001
,
0110
1000
0101
0010
0001
0010
1100
0010
0101
1000
0110
0001
0010
0100
1010
0100
,
0011
0100
1010
0001
0010
0100
1010
0001
0110
1000
0101
0010
1100
0010
0101
1000
,
0110
0001
0010
0100
1010
0100
0010
0001
0110
1000
0100
0010
0101
0010
0100
1000
,
0110
0001
0010
0100
1010
0100
0010
0001
0110
1000
0100
0010
0101
0010
0100
1000
,
0110
1000
0100
0010
0101
0010
0100
1000
0110
0001
0010
0100
1010
0100
0010
0001
,
0110
1000
0100
0010
0101
0010
0100
1000
0110
0001
0010
0100
1010
0100
0010
0001
,
0110
0001
0010
0100
1010
0100
0010
0001
0110
1000
0100
0010
0101
0010
0100
1000
,
0110
1000
0100
0010
0101
0010
0100
1000
0110
0001
0010
0100
1010
0100
0010
0001
,
0110
0001
0010
0100
1010
0100
0010
0001
0110
1000
0100
0010
0101
0010
0100
1000
,
0110
0001
0010
0100
1000
0100
0010
0100
0010
0001
1010
0101
1010
0100
1010
0001
,
0010
0100
2010
3001
0010
0100
2010
3001
0010
0100
2010
3001
0010
0100
2010
3001
,
0100
0000
2010
3000
0001
0000
2010
3000
0100
0000
2010
3000
0001
0000
2010
3000
,
0100
0010
0102
1003
0100
0010
0102
1003
0100
0010
0102
1003
0100
0010
0102
1003
,
0010
0000
0102
0003
1000
0000
0102
0003
0100
0010
0102
1003
0010
0100
2010
3001
,
0010
0100
2010
3001
0010
0100
2010
3001
0010
0100
2010
3001
0010
0100
2010
3001
,
0100
0000
2010
3000
0001
0000
2010
3000
0100
0000
2010
3000
0001
0000
2010
3000
,
0100
0010
0102
1003
0100
0010
0102
1003
0100
0010
0102
1003
0100
0010
0102
1003
,
0100
0010
0102
1003
0100
0010
0102
1003
0100
0010
0102
1003
0100
0010
0102
1003
,
0210
0000
0001
0300
1020
0000
0100
0030
1000
0000
0100
0000
0012
0000
0100
0003
2010
0000
0001
3000
0120
0000
1000
0030
0100
0000
0010
0000
0102
0000
1000
0003
,
0210
0000
0001
0300
2010
0000
0100
3000
0010
0000
0001
0000
2010
0000
0100
3000
0012
0000
0100
0003
1020
0000
0100
0030
2001
0000
0100
3000
0012
0000
0100
0003
,
2010
0000
0100
3000
0021
0000
0100
0030
1000
0000
0100
0000
0012
0000
0100
0003
1020
0000
0001
0030
1200
0000
0010
0300
0001
0000
0010
0000
0102
0000
1000
0003
,
0210
0000
0001
0300
1020
0000
0100
0030
1000
0000
0100
0000
0012
0000
0100
0003
2010
0000
0001
3000
0120
0000
1000
0030
0102
0000
1000
0003
0210
0000
0001
0300
,
2010
0000
0100
3000
0012
0000
0100
0003
1000
0000
0100
0000
2010
0000
0001
3000
0120
0000
1000
0030
0201
0000
0010
0300
0001
0000
0010
0000
2100
0000
0010
3000
,
0102
0000
1000
0003
0210
0000
0001
0300
0010
0000
0100
0000
2010
0000
0100
3000
0012
0000
0100
0003
2010
0000
0001
3000
0120
0000
1000
0030
0102
0000
0010
0003
,
2100
0000
0010
3000
0102
0000
1000
0003
0100
0000
1000
0000
0210
0000
0001
0300
2010
0000
0100
3000
0021
0000
0100
0030
1000
0000
0100
0000
2010
0000
0001
3000
,
0120
0000
1000
0030
0201
0000
0010
0300
0001
0000
0010
0000
2100
0000
0010
3000
0102
0000
1000
0003
0210
0000
0001
0300
2010
0000
0100
3000
0021
0000
0100
0030
,
0002
0003
0020
0030
0200
0300
0020
0030
0200
0300
2000
3000
0200
0300
0020
0030
0002
0003
0020
0030
0200
0300
0020
0030
0002
0003
0020
0030
0200
0300
2000
3000
,
0200
0300
0020
0030
0002
0003
0020
0030
0200
0300
0020
0030
0200
0300
2000
3000
0200
0300
0020
0030
0002
0003
0020
0030
0200
0300
2000
3000
0200
0300
0020
0030
,
0200
0300
2000
3000
0200
0300
0020
0030
0002
0003
0020
0030
0200
0300
0020
0030
0002
0003
0020
0030
0200
0300
2000
3000
0200
0300
0020
0030
0002
0003
0020
0030
,
0002
0003
0020
0030
0200
0300
2000
3000
0200
0300
0020
0030
0200
0300
0020
0030
0002
0003
0020
0030
0200
0300
2000
3000
0200
0300
0020
0030
0200
0300
2000
3000
,
0200
0300
0020
0030
0002
0003
0020
0030
0200
0300
0020
0030
0200
0300
2000
3000
0200
0300
0020
0030
0002
0003
0020
0030
0002
0003
0020
0030
0200
0300
2000
3000
,
0200
0300
0020
0030
0002
0003
0020
0030
0200
0300
0020
0030
0200
0300
2000
3000
0200
0300
0020
0030
0002
0003
0020
0030
0200
0300
2000
3000
0200
0300
0020
0030
,
0002
0003
0020
0030
0200
0300
0020
0030
0200
0300
2000
3000
0200
0300
0020
0030
0002
0003
0020
0030
0200
0300
0020
0030
0200
0300
2000
3000
0200
0300
0020
0030
,
0002
0003
0020
0030
0200
0300
2000
3000
0200
0300
0020
0030
0200
0300
0020
0030
0002
0003
0020
0030
0200
0300
0020
0030
0200
0300
2000
3000
0200
0300
0020
0030
,
0002
0003
0020
0030
0200
0300
2000
3000
0200
0300
0020
0030
0200
0300
0020
0030
0002
0003
0020
0030
0200
0300
0020
0030
0002
0003
0020
0030
0200
0300
2000
3000
,
0200
0300
0020
0030
0002
0003
0020
0030
0002
0003
0020
0030
0200
0300
0020
0030
0200
0300
2000
3000
0200
0300
0020
0030
0002
0003
0020
0030
0200
0300
0020
0030
,
0002
0003
0020
0030
0200
0300
2000
3000
0200
0300
0020
0030
0200
0300
0020
0030
0002
0003
0020
0030
0200
0300
2000
3000
0200
0300
0020
0030
0002
0003
0020
0030
,
0200
0300
0020
0030
0002
0003
0020
0030
0200
0300
2000
3000
0200
0300
0020
0030
0200
0300
0020
0030
0002
0003
0020
0030
0200
0300
2000
3000
0200
0300
0020
0030
,
0200
0300
0020
0030
0002
0003
0020
0030
0200
0300
2000
3000
0200
0300
0020
0030
0200
0300
0020
0030
0002
0003
0020
0030
0200
0300
2000
3000
0200
0300
0020
0030
,
0002
0003
0020
0030
0200
0300
0020
0030
0200
0300
2000
3000
0200
0300
0020
0030
0002
0003
0020
0030
0200
0300
0020
0030
0002
0003
0020
0030
0200
0300
2000
3000
,
0200
0300
0020
0030
0200
0300
0020
0030
0002
0003
0020
0030
0200
0300
2000
3000
0200
0300
0020
0030
0002
0003
0020
0030
0002
0003
0020
0030
0200
0300
0020
0030
,
0200
0300
2000
3000
0200
0300
0020
0030
0002
0003
0020
0030
0200
0300
0020
0030
0002
0003
0020
0030
0200
0300
0020
0030
0200
0300
2000
3000
0200
0300
0020
0030
,
2222
0000
0000
0000
0000
0000
0000
0000
0000
0000
0000
0000
0000
3333
0000
0000
,
2002
3003
2200
3300
0220
0330
0022
0033
,
2222
0000
0000
0000
0000
0000
0000
0000
0000
0000
0000
0000
0000
3333
0000
0000
,
2002
3003
0022
0033
0220
0330
2200
3300
,
2222
3003
0000
2002
3003
0000
2002
3333
,
2222
3003
0000
2002
3003
0000
2002
3333
,
2222
0330
0000
0220
0330
0000
0220
3333
,
2222
0330
0000
0220
0330
0000
0220
3333
,
2222
0000
3003
0000
1001
0330
0000
0000
2222
0000
3003
0000
1001
0330
0000
0000
,
2222
0000
0330
0000
0110
3003
0000
0000
2222
0000
0330
0000
0110
3003
0000
0000
,
2222
0000
3003
0000
1001
0330
0000
0000
2222
0000
3003
0000
1001
0330
0000
0000
,
2222
0000
0330
0000
0110
3003
0000
0000
2222
0000
0330
0000
0110
3003
0000
0000
,
2222
0000
3003
0000
1001
0330
0000
0000
2222
0000
3003
0000
1001
0330
0000
0000
2222
0000
3003
0000
1001
0330
0000
0000
2222
0000
3003
0000
1001
0330
0000
0000
,
2222
0000
3003
0000
1001
0330
0000
0000
2222
0000
3003
0000
1001
0330
0000
0000
2222
0000
3003
0000
1001
0330
0000
0000
2222
0000
3003
0000
1001
0330
0000
0000
,
2222
3333
2222
3333
2222
3333
2222
3333
2222
3333
2222
3333
2222
3333
2222
3333
,
1111
1111
1111
1111
1111
0000
1111
0000
1111
0000
1111
0000
1111
0000
0000
0000
1111
0000
0000
0000
1111
0000
0000
0000
1111
0000
0000
0000
1111
0000
0000
0000
,
0000
1111
0000
0000
1111
0000
1111
0000
1111
0000
0000
1111
0000
0000
1111
0000
,
1111
0000
1111
0000
2222
0000
0000
0000
3003
0000
0000
0330
2200
3310
0001
0010
,
2200
3310
0001
0010
2200
3310
0001
0010
2200
3310
0001
0010
2200
3310
0001
0010
,
2200
3310
0001
0010
2200
3310
0001
0010
2200
3310
0001
0010
0022
0133
1000
0100
,
0022
0133
1000
0100
0022
0133
1000
0100
0022
0133
1000
0100
0022
0133
1000
0100
,
0022
0133
1000
0100
0022
0133
1000
0100
0022
0133
1000
0100
2200
3310
0001
0010
,
2200
3310
0001
0010
2200
3310
0001
0010
2200
3310
0001
0010
2200
3310
0001
0010
,
2200
3310
0001
0010
2200
3310
0001
0010
2200
3310
0001
0010
0022
0133
1000
0100
,
0022
0133
1000
0100
0022
0133
1000
0100
0022
0133
1000
0100
0022
0133
1000
0100
,
0022
0133
1000
0100
0022
0133
1000
0100
0022
0133
1000
0100
1101
0010
2002
3013
,
1101
0010
2002
3013
1101
0010
2002
3013
1101
0010
2002
3013
1101
0010
2002
3013
,
1101
0010
2002
3013
1101
0010
2002
3013
1101
0010
2002
3013
0111
1000
0220
1330
,
0111
1000
0220
1330
0111
1000
0220
1330
0111
1000
0220
1330
0111
1000
0220
1330
,
0111
1000
0220
1330
0111
1000
0220
1330
0111
1000
0220
1330
1011
0100
2002
3103
,
1011
0100
2002
3103
1011
0100
2002
3103
1011
0100
2002
3103
1011
0100
2002
3103
,
1011
0100
2002
3103
1011
0100
2002
3103
1011
0100
2002
3103
1110
0001
0220
0331
,
1110
0001
0220
0331
1110
0001
0220
0331
1110
0001
0220
0331
1110
0001
0220
0331
,
1110
0001
0220
0331
1110
0001
0220
0331
1110
0001
0220
0331
1000
0000
0102
0000
,
0013
0201
1300
0102
0013
0201
1300
0102
,
0013
0201
1300
0102
0013
1200
0301
1020
,
0130
2010
3001
1020
0130
2010
3001
1020
,
0130
0000
2010
0000
3001
0000
1020
0000
0130
0000
2010
0000
3101
0010
1100
0010
,
0100
1000
0110
0001
1010
0100
0010
0001
0110
1000
0002
0000
0020
0000
0200
0000
,
2000
0000
0000
0000
0000
3000
0000
0300
0000
0030
0000
0003
1100
0010
0101
0010
,
0001
0010
1100
0010
0101
1000
0110
0001
0010
0100
1010
0001
2000
0200
0020
0002
,
0003
0030
0300
3000
0011
0100
1010
0001
0110
1000
0100
0010
0101
0010
1100
0010
,
0101
1000
0100
0010
0101
1000
0110
0001
1010
0100
1000
0100
0011
0100
2000
0000
,
0200
0000
0020
0000
0002
0000
0000
0003
0000
0030
0000
0300
0000
3000
0011
0100
,
1010
0001
0010
0100
1010
0001
0110
1000
0101
0010
0001
0010
1100
0010
0101
1000
,
0110
0001
0010
0100
0011
0100
1010
0001
1010
0100
0011
0100
1010
0001
1110
0000
,
0001
0000
0000
0000
1110
0000
0000
0000
0001
0000
0000
0000
2100
0000
0000
0000
3210
0000
0000
0000
0321
0000
0000
0000
1032
0000
0000
0000
2003
3000
0200
0300
,
0020
0030
0002
0003
1110
0000
0000
0000
0000
0000
0000
0000
0000
0000
0000
0000
0000
0000
0000
0000
0000
0000
0000
0000
0000
0000
0000
0000
0000
0000
0000
0000
;
